#TITLE:Show time;
#SUBTITLE:;
#ARTIST:Twenty4-7;
#TITLETRANSLIT:;
#SUBTITLETRANSLIT:;
#ARTISTTRANSLIT:;
#CREDIT:;
#BANNER:Show time_logo.jpg;
#BACKGROUND:Show time_bg.jpg;
#LYRICSPATH:;
#CDTITLE:Lan.png;
#MUSIC:Show time.mp3;
#OFFSET:-0.020;
#SAMPLESTART:100.000;
#SAMPLELENGTH:12.000;
#SELECTABLE:YES;
#BPMS:0.000=106.000;
#STOPS:;
#BGCHANGES:;
// cache tags:
#FIRSTBEAT:4.000;
#LASTBEAT:224.000;
#SONGFILENAME:Songs/lan sky/Show time/Show time.sm;
#HASMUSIC:1;
#HASBANNER:1;
#MUSICLENGTH:126.763;
// end cache tags

//---------------dance-single - sky----------------
#NOTES:
     dance-single:
     sky:
     Hard:
     8:
     0.725,0.729,0.955,0.079,0.205,485.000,121.000,10.000,0.000,50.000:

0000
0000
0000
0000
,
0110
1000
0100
0010
1000
0000
0010
0000
0100
0000
0010
0000
1000
0000
0010
0000
,
0101
1000
0100
0010
0100
0000
1000
0000
0010
0000
0100
0000
0010
0000
0001
0000
,
1001
0010
0100
0010
0001
0000
0100
0000
1000
0000
0010
0000
0100
0000
0001
0000
,
1100
0001
0010
0100
0010
0000
1000
0000
0010
0000
0100
0000
0001
0000
0010
0000
,
1100
0010
0001
0010
0100
0000
0010
0000
1000
0000
0010
0000
0100
0000
0001
0000
,
1010
0001
0100
1000
0010
0000
0100
0000
1000
0000
0010
0000
0100
0000
0001
0000
,
0110
1000
0001
0010
0100
0000
0010
0000
1000
0000
0010
0000
0100
0000
1000
0000
,
0111
1000
0111
1000
0111
0111
0111
1000
,
0110
0001
1010
0100
1100
0001
0110
0001
,
1010
0100
1001
0010
1100
0010
0110
0001
,
0011
0100
1010
0001
0110
1000
0101
0010
,
1100
0001
1010
0100
1100
0010
0110
0001
,
0011
0100
1001
0010
0110
0001
1010
0100
,
1010
0001
0110
1000
0101
0010
1100
0010
,
1001
0100
0011
1000
0110
0001
1010
0100
,
1011
0100
1011
0100
1011
0100
1011
0000
,
0100
1000
0010
0100
0001
0010
1000
0010
,
0100
0001
0010
1000
0010
0100
0001
0010
,
1000
0010
0100
0001
1000
0010
0100
0001
,
0110
0001
0110
0001
1000
0010
0100
0001
,
0100
0010
1000
0001
0010
1000
0010
0100
,
0001
1000
0010
0100
0001
0010
0100
0001
,
2100
0010
0001
0100
0010
0100
0001
0010
,
3102
0010
1000
0100
0010
1000
0100
1000
,
0013
0100
1000
0010
0100
0001
0010
0100
,
1000
0010
0100
0010
0001
0100
0010
1000
,
0100
0001
0010
1000
0100
0001
0010
1000
,
0110
0001
0110
0001
0100
0010
1000
0001
,
0000
0000
0100
0010
0001
0010
0100
1000
0100
1000
0100
0010
0001
0000
0100
0010
,
0001
0010
0100
0010
0100
1000
0100
0010
0001
0010
0100
0010
0100
0000
0100
0000
,
0000
0000
1000
0100
0010
0100
0010
0100
0010
0001
0010
0100
1000
0000
1000
0000
,
0100
0010
0001
0000
0000
0001
0010
0100
0000
1000
0000
1000
0000
1000
0000
1000
,
0110
0001
0101
0010
1100
0010
0101
1000
,
0110
0001
1010
0100
0011
0100
1100
0010
,
0101
0010
1100
0001
0110
1000
0011
1000
,
0111
1000
0111
1000
0111
1000
0101
0010
,
1100
0001
0110
1000
0101
0010
0110
0001
,
1100
0100
0011
1000
0101
0010
1100
0001
,
0110
1000
0101
0010
1001
0100
0011
0100
,
1011
0100
1011
0100
1011
0100
1011
0100
,
1102
0010
1010
0100
1100
0010
1100
0100
,
1123
0001
0101
1000
1100
0100
0101
1000
,
2131
0010
0110
0001
0011
0100
0011
0100
,
3211
1000
0011
1000
0011
1000
0011
1000
,
1312
0100
1100
0010
0110
1000
1010
0100
,
1123
1000
0101
0100
1100
0100
1001
0100
,
1132
0010
0110
1000
1010
0100
1100
0010
,
2113
0010
0111
0010
0111
0010
0111
0010
,
3101
0010
1000
0100
0010
0000
0100
0000
1000
0000
0010
0000
0100
0000
1000
0000
,
0011
0100
1000
0100
0010
0000
0100
0000
1000
0000
0010
0000
0100
0000
0001
0000
,
1100
0010
0001
0010
0100
0000
1000
0000
0010
0000
0001
0000
0100
0000
1000
0000
,
0101
0010
0100
1000
0100
0000
0001
0000
0010
0000
1000
0000
0010
0000
0100
0000
,
1001
0100
0010
0100
1000
0000
0001
0000
0010
0000
1000
0000
0010
0000
0100
0000
,
0011
0100
1000
0100
0010
0000
0001
0000
0100
0000
1000
0000
0010
0000
1000
0000
,
0101
0010
0100
1000
0100
0000
0001
0000
0010
0000
1000
0000
0100
0000
1000
0000
,
0010
0000
0000
0000
;
